img image001 image001 image001 image001 image001 image001 image001 image001 image001 image001 image001 image001 image001 image001 image001 image001
Planets Sun Sun Sun
Статистика раздачи
Автор: Снежана | Размер: 9.79 ГБ | Добавлен: 13 апр 2018
Раздают: 0    Качают: 4
Скачать торрент
Скачать торрент
Описание торрента

СообщениеДобавлено: 13 апр 2018 

Берёзка (1-6 серии из 16)


Перевод: Не требуется
Cубтитры: отсутствуют
Формат: WEB-DL 720p, MKV, H.264, AC3
Страна: Россия, Кинокомпания Русское
Режиссер: Александр Баранов
Жанр: Мелодрама
Всего серий: 16
Продолжительность: 6x ~ 00:52:00
Год выпуска: 2018

В ролях: Любовь Константинова,Ольга Бобкова,Алёна Коломина,Лидия Вележева,Мария Порошина,Михаил Ефремов,Алексей Серебряков,Нина Усатова,Надежда Маркина,Сергей Шакуров.

Описание: Вот уже 70 лет ансамбль «Березка» завораживает зрителей диковинным «плывущим» шагом, создающим впечатление, будто девушки стоят на месте, а сцена под ними вращается. Талантливым танцовщицам — дерзкой провинциалке Варе, амбициозной красавице из Таллинна Эдите и коренной москвичке Лене — предстоит пройти непростой путь к большой сцене, невзирая на череду взлётов и падений.



Видео: 1280x720p (16:9), 25,000 fps, MPEG4 AVC (x264), ~4300 kbps avg, 0.187 bit/pixel
Аудио: 48 kHz, AC3, 2 ch ~ 192 Kbps


Общее
Уникальный идентификатор : 186493296384257107710383744387376610781 (0x8C4D4D69A74322B6A9B6BE19A359FDDD)
Полное имя : F:\TREKER\ТЕМР\berezka_[tfile.me]\berezka_e01.mkv
Формат : Matroska
Версия формата : Version 2
Размер файла : 1,63 Гбайт
Продолжительность : 52 м. 26 с.
Общий поток : 4455 Кбит/сек
Дата кодирования : UTC 2018-04-11 15:38:23
Программа кодирования : mkvmerge v4.0.0 ('The Stars were mine') сборка от Jun 6 2010 16:18:42
Библиотека кодирования : libebml v1.0.0 + libmatroska v1.0.0
Обложка : Yes
Attachments : cover.jpg

Видео
Идентификатор : 1
Формат : AVC
Формат/Информация : Advanced Video Codec
Профиль формата :
Параметр CABAC формата : Да
Параметр ReFrames формата : 6 кадров
Идентификатор кодека : V_MPEG4/ISO/AVC
Продолжительность : 52 м. 26 с.
Битрейт : 4300 Кбит/сек
Ширина : 1280 пикселей
Высота : 720 пикселей
Соотношение сторон : 16:9
Режим частоты кадров : Постоянный
Частота кадров : 25,000 кадров/сек
Цветовое пространство : YUV
Субдискретизация насыщенности : 4:2:0
Битовая глубина : 8 бит
Тип развёртки : Прогрессивная
Бит/(Пиксели*Кадры) : 0.187
Размер потока : 1,53 Гбайт (94%)
Библиотека кодирования : x264 core 146 r2538 121396c
Настройки программы : cabac=1 / ref=6 / deblock=1:-1:-1 / analyse=0x3:0x133 / me=umh / subme=10 / psy=1 / psy_rd=1.00:0.15 / mixed_ref=1 / me_range=24 / chroma_me=1 / trellis=2 / 8x8dct=1 / cqm=0 / deadzone=21,11 / fast_pskip=0 / chroma_qp_offset=-3 / threads=12 / lookahead_threads=1 / sliced_threads=0 / nr=0 / decimate=1 / interlaced=0 / bluray_compat=0 / constrained_intra=0 / bframes=3 / b_pyramid=2 / b_adapt=2 / b_bias=0 / direct=1 / weightb=1 / open_gop=0 / weightp=2 / keyint=250 / keyint_min=25 / scenecut=40 / intra_refresh=0 / rc_lookahead=50 / rc=abr / mbtree=1 / bitrate=4300 / ratetol=1.0 / qcomp=0.69 / qpmin=0 / qpmax=69 / qpstep=4 / ip_ratio=1.40 / aq=1:1.00
Default : Нет
Forced : Нет

Аудио
Идентификатор : 2
Формат : AC-3
Формат/Информация : Audio Coding 3
Расширение режима : CM (complete main)
Параметр Endianness формата : Big
Идентификатор кодека : A_AC3
Продолжительность : 52 м. 26 с.
Вид битрейта : Постоянный
Битрейт : 192 Кбит/сек
Каналы : 2 канала
Расположение каналов : Front: L R
Частота : 48,0 КГц
Частота кадров : 31,250 кадров/сек (1536 spf)
Битовая глубина : 16 бит
Метод сжатия : С потерями
Размер потока : 72,0 Мбайт (4%)
Default : Нет
Forced : Нет








Внимание! Раздача ведётся путём добавления новых серий. При каждом добавлении создаётся новый торрент.
Чтобы начать докачку новой серии, пользователям необходимо сделать следующее:
1. Остановить скачивание.
2. Удалить старый торрент у себя из клиента (старые серии удалять не надо).
3. Скачать новый торрент и запустить его у себя в клиенте вместо старого, при этом указать клиенту путь в старую папку куда и должно происходить скачивание новых серий. Ваш клиент при этом должен произвести хеширование (проверку) старой папки и будет докачивать только те серии, которых у вас ещё нет. Старые серии при этом не удаляются, а продолжают раздаваться! Eсли вы уже удалили старые серии, то предотвратить повторную закачку старых серий можно, отжав галочку в соответствующих местах при запуске нового торрента.



Релиз от:

Релиз предоставлен сайтом tfile.me!!



   Похожие торренты   Торрент   Размер 
В этой теме нет новых непрочитанных сообщений. Берёзка (1-4 серии из 16) (Александр Баранов) [2018, Мелодрама, WEB-DL 720p]

0 | 0

6.53 ГБ

В этой теме нет новых непрочитанных сообщений. Берёзка (1-14 серии из 16) (Александр Баранов) [2018, Мелодрама, WEB-DL 720p]

4 | 11

22.73 ГБ

В этой теме нет новых непрочитанных сообщений. Берёзка (1-2 серии из 16) (Александр Баранов (II)) [2018, мелодрама, WEB-DLRip-AVC]

16 | 0

1.31 ГБ

В этой теме нет новых непрочитанных сообщений. Берёзка (1-4 серии из 16) (Александр Баранов (II)) [2018, мелодрама, SATRip]

8 | 0

2.67 ГБ

В этой теме нет новых непрочитанных сообщений. Берёзка (1-16 серии из 16) (Александр Баранов (II)) [2018, мелодрама, WEB-DLRip]

553 | 494

10.16 ГБ

В этой теме нет новых непрочитанных сообщений. Берёзка (1-8 серии из 16) (Александр Баранов (II)) [2018, мелодрама, WEB-DLRip]

181 | 49

5.08 ГБ

В этой теме нет новых непрочитанных сообщений. Берёзка (1-2 серии из 16) (Александр Баранов (II)) [2018, мелодрама, WEB-DLRip]

62 | 9

1.27 ГБ




Вы не можете начинать темы
Вы не можете отвечать на сообщения
Вы не можете редактировать свои сообщения
Вы не можете удалять свои сообщения
Вы не можете добавлять вложения

Перейти:  
 Вход
ppkBB3cker v.2 © 2008-2014 @ PPK
[ Time : 0.034s | 17 Queries | GZIP : Off ]

cron