img image001 image001 image001 image001 image001 image001 image001 image001 image001 image001 image001 image001 image001 image001 image001 image001
Planets Sun Sun Sun
Статистика раздачи
Автор: Снежана | Размер: 33.35 ГБ | Добавлен: 13 апр 2018
Раздают: 69    Качают: 44
Скачать торрент
Скачать торрент
Описание торрента

СообщениеДобавлено: 13 апр 2018 

Живой (1-16 серии из 16)

Перевод: Не требуется, cубтитры: отсутствуют
Формат: WEBRip 1080р, MKV, VPx, AC3
Страна: Россия
Режиссер: Михаил Кабанов
Жанр: детектив
Всего серий: 16
Продолжительность: 16 х ~ 00:44:00
Год выпуска: 2017
В ролях: Кирилл Кяро, Агата Муцениеце, Маруся Зыкова, Диана Пожарская, Руслан Ягудин, Николай Козак, Александр Хованский (II), Дмитрий Комов
Описание:
стория разворачивается вокруг журналиста популярного интернет-издания Олега Сорокина (Кирилл Кяро), который нападает на след могущественного синдиката, промышляющего убийствами самых богатых людей страны и присваивающего их состояние. Но проблема в том, что никто в его «теорию заговоров» не верит. Вычислив очередную жертву - банкира Лядова, Олег пытается предупредить его о грозящей опасности, но тщетно. Лядова взрывают в собственной машине. Олег продолжает расследование с удвоенной силой и убеждается, что в смерти банкира все очень неоднозначно. А вскоре и сам журналист становится мишенью таинственной преступной организации.

Рейтинг и доп. информация:


Видео: 1920x1080 (16:9), 25.000 fps, AVC, (Н.264) ~6000 kbps avg, ~0.116 bit/pixel
Аудио: 48 kHz, АС3, 2 ch, (Front: L R) ~192.00 kbps avg

Доп. информация:
Release от Nikolspup
Без рекламы и всплывающих надписей

Общее
Уникальный идентификатор : 234876290359599976321998341340752357077 (0xB0B3873072CCB27D9D042F702985A6D5)
Полное имя : D:\Фильмы торренты\Zhivoj.2017.WEB-DL.(1080p).Nikolspup\Zhivoj.(01.seriya).2017.WEB-DL.(1080p).Nikolspup.mkv
Формат : Matroska
Версия формата : Version 4 / Version 2
Размер файла : 1,91 Гбайт
Продолжительность : 44 м. 35 с.
Режим общего битрейта : Постоянный
Общий поток : 6149 Кбит/сек
Дата кодирования : UTC 2018-04-02 19:10:53
Программа кодирования : mkvmerge v7.8.0 ('River Man') 32bit built on Mar 27 2015 16:18:02
Библиотека кодирования : libebml v1.3.1 + libmatroska v1.4.2

Видео
Идентификатор : 1
Формат : AVC
Формат/Информация : Advanced Video Codec
Профиль формата :
Настройки формата : 2 Ref Frames
Параметр CABAC формата : Нет
Параметр RefFrames формата : 2 кадра
Идентификатор кодека : V_MPEG4/ISO/AVC
Продолжительность : 44 м. 35 с.
Вид битрейта : Постоянный
Битрейт : 6000 Кбит/сек
Ширина : 1920 пикселей
Высота : 1080 пикселей
Соотношение сторон : 16:9
Режим частоты кадров : Постоянный
Частота кадров : 25,000 кадров/сек
Стандарт вещания : PAL
Цветовое пространство : YUV
Субдискретизация насыщенности : 4:2:0
Битовая глубина : 8 бит
Тип развёртки : Прогрессивная
Бит/(Пиксели*Кадры) : 0.116
Размер потока : 1,85 Гбайт (97%)
Default : Нет
Forced : Нет
Цветовой диапазон : Limited
Основные цвета : BT.709
Характеристики трансфера : BT.709
Коэффициенты матрицы : BT.709

Аудио
Идентификатор : 2
Формат : AC-3
Формат/Информация : Audio Coding 3
Идентификатор кодека : A_AC3
Продолжительность : 44 м. 35 с.
Вид битрейта : Постоянный
Битрейт : 192 Кбит/сек
Каналы : 2 канала
Расположение каналов : Front: L R
Частота : 48,0 КГц
Частота кадров : 31,250 кадров/сек (1536 SPF)
Битовая глубина : 16 бит
Метод сжатия : С потерями
Размер потока : 61,2 Мбайт (3%)
Язык : Russian
ServiceKind/String : Complete Main
Default : Да
Forced : Да








   Похожие торренты   Торрент   Размер 
В этой теме нет новых непрочитанных сообщений. Живой (1-2 серии из 16) (Михаил Кабанов) [2017, детектив, WEBRip 1080р]

4 | 0

4.07 ГБ

В этой теме нет новых непрочитанных сообщений. Живой (1-14 серии из 16) (Михаил Кабанов) [2017, детектив, WEBRip 1080р]

1 | 0

29.2 ГБ

В этой теме нет новых непрочитанных сообщений. Живой (1-4 серии из 16) (Михаил Кабанов) [2017, детектив, WEBRip 1080р]

1 | 1

8.42 ГБ

В этой теме нет новых непрочитанных сообщений. Живой (1-5 серии из 16) (Михаил Кабанов) [2017, детектив, WEBRip 1080р]

10 | 6

10.49 ГБ

В этой теме нет новых непрочитанных сообщений. Живой (1-8 серии из 16) (Михаил Кабанов) [2017, детектив, WEBRip 1080р]

28 | 1

16.77 ГБ

В этой теме нет новых непрочитанных сообщений. Живой (1-10 серии из 16) (Михаил Кабанов) [2017, детектив, WEBRip 1080р]

8 | 26

20.89 ГБ

В этой теме нет новых непрочитанных сообщений. Живой (1-8 серии из 16) (Михаил Кабанов) [2017, детектив, WEBRip 720p]

12 | 4

12.24 ГБ




Вы не можете начинать темы
Вы не можете отвечать на сообщения
Вы не можете редактировать свои сообщения
Вы не можете удалять свои сообщения
Вы не можете добавлять вложения

Перейти:  
 Вход
ppkBB3cker v.2 © 2008-2014 @ PPK
[ Time : 0.644s | 18 Queries | GZIP : Off ]

cron