img image001 image001 image001 image001 image001 image001 image001 image001 image001 image001 image001 image001 image001 image001 image001 image001
Planets Sun Sun Sun
Статистика раздачи
Автор: Снежана | Размер: 13.92 ГБ | Добавлен: 13 апр 2018
Раздают: 3    Качают: 0
Скачать торрент
Скачать торрент
Описание торрента

СообщениеДобавлено: 13 апр 2018 

Наш мультяшный президент / Our Cartoon President

Перевод: Профессиональный (многоголосый, закадровый) [IdeaFilm]
Субтитры: отсутствуют
Формат: WEBRip, MKV, H.264, AC3
Страна: США
Режиссер: Джузеппе Капотонди, Джон Дэвид Коулз, Михаэль Р. Роскам
Жанр: Комедия, сатира, анимация
Всего серий: 10
Продолжительность: 10х ~00:25:00
Год выпуска: 2018

В ролях: Стивен Колберт, Мэтт Лаппин

Описание: В центре сюжета - безумие, которое, по мнению авторов, скрывается за стенами Белого дома, а точнее, в голове американского президента и его окружения, превращая их жизнь в нечто среднее между комедией и абсурдом.

Рейтинг на:

Видео: 1920x1080 (16:9), 23,976 fps, AVC (х264), , ~6919 kbps avg, 0.139 bit/pixel
Аудио #1: Русский:48 kHz, AC3 Dolby Digital, 2/0 (L,R) ch, ~192 kbps
Аудио #1: Английский:48 kHz, AC3 Dolby Digital, 2/0 (L,R) ch, ~384 kbps

Внимание, присутствует реклама!

Общее
Уникальный идентификатор : 191523727197648146824985021745908264377 (0x901620CCEF5D8F8293666422AE05ADB9)
Полное имя : I:\IDEAFILM\Our.Cartoon.President.S01.WEBRip.1080p\Our.Cartoon.President.S01E01.WEBRip.1080p-IdeaFilm.mkv
Формат : Matroska
Версия формата : Version 4 / Version 2
Размер файла : 1,41 Гбайт
Продолжительность : 27 м. 2 с.
Общий поток : 7488 Кбит/сек
Дата кодирования : UTC 2018-02-14 16:28:48
Программа кодирования : mkvmerge v12.0.0 ('Trust / Lust') 64bit
Библиотека кодирования : libebml v1.3.4 + libmatroska v1.4.5

Видео
Идентификатор : 1
Формат : AVC
Формат/Информация : Advanced Video Codec
Профиль формата :
Настройки формата : CABAC / 4 Ref Frames
Параметр CABAC формата : Да
Параметр RefFrames формата : 4 кадра
Идентификатор кодека : V_MPEG4/ISO/AVC
Продолжительность : 27 м. 2 с.
Битрейт : 6919 Кбит/сек
Ширина : 1920 пикселей
Высота : 1080 пикселей
Соотношение сторон : 16:9
Режим частоты кадров : Постоянный
Частота кадров : 23,976 (24000/1001) кадра/сек
Стандарт вещания : NTSC
Цветовое пространство : YUV
Субдискретизация насыщенности : 4:2:0
Битовая глубина : 8 бит
Тип развёртки : Прогрессивная
Бит/(Пиксели*Кадры) : 0.139
Размер потока : 1,31 Гбайт (92%)
Язык : English
Default : Да
Forced : Нет
Цветовой диапазон : Limited
Основные цвета : BT.709
Характеристики трансфера : BT.709
Коэффициенты матрицы : BT.709

Аудио #1
Идентификатор : 2
Формат : AC-3
Формат/Информация : Audio Coding 3
Идентификатор кодека : A_AC3
Продолжительность : 27 м. 1 с.
Вид битрейта : Постоянный
Битрейт : 192 Кбит/сек
Каналы : 2 канала
Расположение каналов : Front: L R
Частота : 48,0 КГц
Частота кадров : 31,250 кадров/сек (1536 SPF)
Битовая глубина : 16 бит
Метод сжатия : С потерями
Размер потока : 37,1 Мбайт (3%)
Заголовок : IdeaFIlm
Язык : Russian
ServiceKind/String : Complete Main
Default : Да
Forced : Нет

Аудио #2
Идентификатор : 3
Формат : AC-3
Формат/Информация : Audio Coding 3
Идентификатор кодека : A_AC3
Продолжительность : 26 м. 21 с.
Битрейт : 384 Кбит/сек
Каналы : 2 канала
Частота : 48,0 КГц
Частота кадров : 31,250 кадров/сек (1536 SPF)
Метод сжатия : С потерями
Размер потока : 72,4 Мбайт (5%)
Язык : English
Default : Нет
Forced : Нет








   Похожие торренты   Торрент   Размер 
В этой теме нет новых непрочитанных сообщений. Наш мультяшный президент, 1 сезон 1-5 серии из 10 / Our Cartoon President (Стивен Колберт, Мэтт Лаппин) [2018, комедия, сатира, анимация, WEBRip 1080p] MVO

2 | 0

6.98 ГБ

В этой теме нет новых непрочитанных сообщений. Наш мультяшный президент, 1 сезон 1-7 серии из 10 / Our Cartoon President (Стивен Колберт, Мэтт Лаппин) [2018, комедия, сатира, анимация, WEBRip 1080p] MVO

2 | 3

9.81 ГБ

В этой теме нет новых непрочитанных сообщений. Наш мультяшный президент, 1 сезон 1-6 серии из 10 / Our Cartoon President (Стивен Колберт, Мэтт Лаппин) [2018, комедия, сатира, анимация, WEBRip 1080p] MVO

0 | 0

8.37 ГБ

В этой теме нет новых непрочитанных сообщений. Наш мультяшный президент, 1 сезон 1-9 серии из 10 / Our Cartoon President (Стивен Колберт, Мэтт Лаппин) [2018, комедия, сатира, анимация, WEBRip 1080p] MVO

6 | 0

12.54 ГБ

В этой теме нет новых непрочитанных сообщений. Наш мультяшный президент, 1 сезон 1-4 серии из 10 / Our Cartoon President (Стивен Колберт, Мэтт Лаппин) [2018, комедия, сатира, анимация, WEBRip 1080p] MVO

3 | 2

5.57 ГБ

В этой теме нет новых непрочитанных сообщений. Наш мультяшный президент, 1 сезон 1-8 серии из 10 / Our Cartoon President (Стивен Колберт, Мэтт Лаппин) [2018, комедия, сатира, анимация, WEBRip 1080p] MVO

5 | 0

11.19 ГБ

В этой теме нет новых непрочитанных сообщений. Наш мультяшный президент, 1 сезон 1-2 серии из 10 / Our Cartoon President [IdeaFilm] (Стивен Колберт, Мэтт Лаппин) [2018, комедия, сатира, анимация, WEBRip 1080p] MVO

8 | 2

2.77 ГБ




Вы не можете начинать темы
Вы не можете отвечать на сообщения
Вы не можете редактировать свои сообщения
Вы не можете удалять свои сообщения
Вы не можете добавлять вложения

Перейти:  
 Вход
ppkBB3cker v.2 © 2008-2014 @ PPK
[ Time : 0.038s | 18 Queries | GZIP : Off ]

cron